[Linuxtrent] Re: Serata GLPI + OCS-ng: inventario di una infrastruttura ICT [era Software attribuzione...]

Il 22/05/2012 20:11, Roberto Resoli ha scritto:
Il 22 maggio 2012 13:41, Roberto Resoli<roberto.resoli@xxxxxxxxx>  ha scritto:
Il 22 maggio 2012 11:21, Tiziano Sartori<tiziano.sartori@xxxxxxxxx>  ha scritto:
...

completezza, cosa hai usato per la conversione ?
Transmageddon ma il risultato è pessimo comunque, non va il seek mi sembra.... 
è nato male come hai detto tu!

pare che il file contenga uno stream aggiuntivo con codec non riconosciuto

Stream #0.0: Invalid Codec type -1
Stream #0.1: Video: theora, 1024x768, PAR 1:1 DAR 4:3, 2 tbr, 2 tbn, 2 tbc
Stream #0.2: Audio: vorbis, 22050 Hz, mono, s16, 89 kb/s

se ritieni ne valga la pena provo a rimontarlo in maniera pulita.

rob

Si grazie io non so più dove sbattere la testa, non me ne intendo

--
Ciao, Tiziano.
http://www.tizianosartori.com
--
Per iscriversi  (o disiscriversi), basta spedire un  messaggio con OGGETTO
"subscribe" (o "unsubscribe") a mailto:linuxtrent-request@xxxxxxxxxxxxx


Other related posts: